#TITLE:On The Floor;
#SUBTITLE:Expi3nze;
#ARTIST:Jennifer Lopez ft. Pitbull;
#TITLETRANSLIT:;
#SUBTITLETRANSLIT:;
#ARTISTTRANSLIT:;
#CREDIT:;
#BANNER:bn.png;
#BACKGROUND:bg.png;
#LYRICSPATH:;
#CDTITLE:cdtitle.png;
#MUSIC:On The Floor.mp3;
#OFFSET:-0.160;
#SAMPLESTART:81.722;
#SAMPLELENGTH:16.406;
#SELECTABLE:YES;
#BPMS:0.000=128.005,1.000=127.999,8.000=128.005,9.000=127.999,16.000=128.005,17.000=127.999,24.000=128.005,25.000=127.999,32.000=128.005,33.000=127.999,40.000=128.005,41.000=127.999,48.000=128.005,49.000=127.999,56.000=128.005,57.000=127.999,64.000=128.005,65.000=127.999,72.000=128.005,73.000=127.999,80.000=128.005,81.000=127.999,88.000=128.005,89.000=127.999,96.000=128.005,97.000=127.999,105.000=128.005,106.000=127.999,113.000=128.005,114.000=127.999,121.000=128.005,122.000=127.999,129.000=128.005,130.000=127.999,137.000=128.005,138.000=127.999,145.000=128.005,146.000=127.999,153.000=128.005,154.000=127.999,161.000=128.005,162.000=127.999,169.000=128.005,170.000=127.999,177.000=128.005,178.000=127.999,185.000=128.005,186.000=127.999,193.000=128.005,194.000=127.999,201.000=128.005,202.000=127.999,210.000=128.005,211.000=127.999,218.000=128.005,219.000=127.999,226.000=128.005,227.000=127.999,234.000=128.005,235.000=127.999,242.000=128.005,243.000=127.999,250.000=128.005,251.000=127.999,258.000=128.005,259.000=127.999,266.000=128.005,267.000=127.999,274.000=128.005,275.000=127.999,277.000=255.998,277.500=64.000,277.750=127.999,280.000=128.005,281.000=127.999,288.000=128.005,289.000=127.999,296.000=128.005,297.000=127.999,304.000=128.005,305.000=127.999,312.000=128.005,313.000=127.999,320.000=128.005,321.000=127.999,328.000=128.005,329.000=127.999,336.000=128.005,337.000=127.999,344.000=128.005,345.000=127.999;
#STOPS:;
#BGCHANGES:;
// cache tags:
#FIRSTBEAT:3.000;
#LASTBEAT:348.000;
#SONGFILENAME:Songs/Super Dancer Online/On The Floor (Jennifer Lopez)/On The Floor.sm;
#HASMUSIC:1;
#HASBANNER:1;
#MUSICLENGTH:164.205;
// end cache tags

//---------------dance-single - ----------------
#NOTES:
     dance-single:
     :
     Hard:
     18:
     1.000,1.000,1.000,0.189,0.253,687.000,392.000,31.000,0.000,54.000:
0000
0000
0000
0000
0000
0000
0000
0000
0000
0000
0000
0000
0100
0100
1000
0010
,
0100
0000
0010
0000
0000
0020
0000
0000
0032
0000
0000
0000
0000
0000
0200
0000
,
2300
0000
3020
0000
2030
0000
0000
3000
2003
0000
3020
0000
0032
0000
2003
0000
,
3200
2300
3002
2003
3200
0000
0000
0000
,
0000
0000
0000
0000
,
0300
0000
0000
0000
0000
0200
0000
0000
0320
0000
0000
0000
0100
0000
0100
0000
,
1100
1001
0001
0100
1030
1010
0011
1001
,
1001
0000
1100
0000
0110
0000
0011
0000
0001
0100
0010
0000
1100
0000
1001
0000
,
0011
0000
0110
0000
1100
0000
1000
0010
0100
0000
0001
0000
0101
0000
1010
0000
,
0011
0001
1000
1100
0102
0000
1000
1010
,
0010
1000
1010
0010
1003
1100
0110
0011
,
0110
0010
1100
1001
0010
1010
1001
0011
,
1000
0100
1001
1010
1001
0010
0011
0110
,
0100
1000
1010
1010
0011
0000
1010
1010
,
0011
1000
1100
1001
1010
0000
1001
0000
0011
0000
0000
0000
1001
0000
1001
0000
,
0011
1000
0100
1000
1010
0000
1001
0000
0011
0000
0000
0000
1010
0000
1010
0000
,
0000
0000
0011
1001
1100
0000
0011
0011
,
0000
0000
0000
0000
0001
0000
0000
0000
0111
0000
1000
0010
1100
0000
1000
0000
,
0011
0110
1100
0001
0101
1010
0011
0001
,
2000
0000
0000
0000
3011
0000
0001
0000
0001
0000
1000
0010
1001
0000
1100
0000
,
1001
0101
1001
1100
0110
0011
0110
1100
,
1002
0000
0000
0000
1103
0000
1000
0000
1000
0000
0001
0001
1100
0000
0110
0000
,
0011
0110
1100
0101
0101
1100
1001
0011
,
2001
0000
3010
1010
1001
0001
1100
0110
,
0011
0110
1000
0001
1001
1001
1100
1001
,
0011
0000
0001
0000
2000
0000
0000
0000
3111
0000
1000
0010
1100
0000
1000
0000
,
0011
0110
1100
0001
0101
1010
0011
0001
,
2000
0000
0000
0000
3011
0000
0001
0000
0001
0000
1000
0010
1001
0000
1100
0000
,
1001
0101
1001
1100
0110
0011
0110
1100
,
1002
0000
0000
0000
1103
0000
1000
0000
1000
0000
0001
0001
1100
0000
0110
0000
,
0011
0110
1100
0101
0101
1100
1001
0011
,
2001
0000
3010
1010
1001
0001
1100
0110
,
0011
0110
1000
0001
1001
1001
1100
1001
,
0011
0001
1110
0000
0010
0000
0010
0010
,
0000
0010
0000
1010
1010
0011
0110
1100
,
1000
0001
0001
1000
1010
0000
1010
0000
,
1010
0000
0000
0000
0010
0000
0100
1000
0010
0000
0000
0010
0000
0000
0010
0000
,
1010
1001
0011
0110
1100
0000
1100
0000
,
1100
0000
1100
0000
0010
0010
1000
1100
,
1001
0000
0101
0000
0001
0000
1100
0000
1000
0000
0000
0010
0000
0000
0010
0000
,
0000
0000
0010
0000
0000
0000
0001
0100
0010
0000
0000
0010
0000
0000
0010
0000
,
0000
0010
0010
0010
2000
0000
0010
0010
,
0110
0000
0001
0100
0010
0000
0001
0000
0101
0000
0001
0100
0010
0000
0010
0000
,
0010
0000
0010
0001
0010
0000
0010
0000
3111
0000
1100
0000
1110
0000
0011
0000
,
1001
1100
1101
0001
1010
1001
0011
0110
,
1100
1001
1101
0011
0001
0010
0111
1000
,
1010
0101
0011
0110
1100
0001
0111
0111
,
0111
0001
1100
1001
0011
0001
1110
0011
,
1001
1100
1101
0001
1010
1001
0011
0110
,
1100
1001
1101
0011
0001
0010
0111
1000
,
1010
0101
0011
0110
1100
0001
0111
0111
,
0111
0000
0001
0000
1100
0000
1100
0000
0011
0000
0100
1000
0010
0000
0100
0000
,
0100
0000
0001
0100
1001
0000
0011
0000
0001
1000
0100
0000
0001
0001
0010
0001
,
1100
0000
1001
0000
0011
0000
0010
1000
0100
1000
1000
0000
0100
1001
0001
0100
,
1000
0001
0011
1000
1001
0000
0100
1000
0011
0000
1000
0100
0001
0010
0001
1000
,
0011
1000
0010
0000
1010
0000
0101
0000
0011
0000
0001
0100
0010
0001
0010
0001
,
1001
1000
0100
1000
0100
0010
1000
1010
0011
0110
1100
1000
0001
0010
0101
1010
,
0011
1001
1010
0001
0010
0001
0001
0000
1100
0000
0010
0100
0001
0010
0001
0100
,
1000
0000
0010
1000
1001
0000
1001
0000
0001
0000
1000
0000
1100
0000
0001
0010
,
0101
0010
0100
0001
0010
0100
0001
0000
0011
0000
1001
0000
1100
0000
0100
0001
,
0010
0000
0001
0000
0000
0000
0010
0000
2010
0000
0000
0000
0100
0010
0001
0100
,
0010
0000
0010
0000
0010
0000
0000
0000
3111
0000
0000
0010
0000
0000
0010
0000
,
1010
0000
1001
0000
0011
0000
0100
0000
1000
0000
0000
0010
0100
0000
0010
0000
,
0000
0000
0001
0000
0001
0000
0010
0001
0100
0000
0000
0010
0000
0000
0010
0000
,
0000
0000
0010
0000
0010
0000
0100
0010
1000
0000
0000
0000
0010
0000
0000
0010
,
0000
0010
1100
1001
0001
1000
1010
1010
,
0011
1001
1000
0000
0011
1001
1100
1001
,
0101
0000
1001
0000
1100
0000
1000
0000
0011
0000
1000
1100
1010
1001
1010
1100
,
1001
1100
1010
1001
1010
1100
1001
1100
1010
1001
1010
1100
1001
1100
1010
1001
,
1010
1100
1000
0000
0111
0000
0000
0000
0011
0000
1001
0000
1110
0000
0011
0000
,
1001
1100
1101
0001
1010
1001
0011
0110
,
1100
1001
1101
0011
0001
0010
0111
1000
,
1010
0101
0011
0110
1100
0001
0111
0111
,
0111
0001
1100
1001
0011
0001
1110
0011
,
1001
1100
1101
0001
1010
1001
0011
0110
,
1100
1001
1101
0011
0001
0010
0111
1000
,
1010
0101
0011
0110
1100
0001
0111
0111
,
0111
0001
1100
1001
0011
0001
1110
0011
,
1001
1100
1101
0001
1010
1001
0011
0110
,
1100
1001
1101
0011
0001
0010
0111
1000
,
1010
0101
0011
0110
1100
0001
0111
0111
,
0111
0001
1100
1001
0011
0110
1100
0110
,
0011
0110
1100
1000
0001
1010
1001
0011
,
0110
1100
1001
1001
0001
1000
0100
1000
,
1010
1001
0011
0001
1100
1001
0011
0110
,
2010
0000
3020
0032
,
0203
0000
0000
0000
,
0300
0000
0000
0000
;
